#TITLE:Moonlight Shadow(REMIX);
#SUBTITLE:;
#ARTIST:Groove Coverage;
#TITLETRANSLIT:;
#SUBTITLETRANSLIT:;
#ARTISTTRANSLIT:;
#CREDIT:;
#BANNER:Moonlight Shadow(REMIX)_logo.jpg;
#BACKGROUND:Moonlight Shadow(REMIX)_bg.jpg;
#LYRICSPATH:;
#CDTITLE:Lan.png;
#MUSIC:Moonlight Shadow(REMIX).mp3;
#OFFSET:-0.060;
#SAMPLESTART:100.000;
#SAMPLELENGTH:12.000;
#SELECTABLE:YES;
#BPMS:0.000=140.000,78.000=70.000,78.500=210.000,80.000=140.000;
#STOPS:;
#BGCHANGES:;
// cache tags:
#FIRSTBEAT:3.000;
#LASTBEAT:314.250;
#SONGFILENAME:Songs/Super Dancer Online/Moonlight Shadow(REMIX)/Moonlight Shadow(REMIX).sm;
#HASMUSIC:1;
#HASBANNER:1;
#MUSICLENGTH:140.059;
// end cache tags

//---------------dance-single - sky----------------
#NOTES:
     dance-single:
     sky:
     Hard:
     10:
     1.000,1.000,1.000,0.064,1.000,925.000,221.000,9.000,0.000,0.000:

0000
0000
0000
0000
0000
0000
1000
0001
,
1001
0000
0000
0110
1000
0100
0010
0001
,
2000
0000
0000
0002
3000
0000
0000
0003
,
1100
0110
0011
0110
0000
0000
0110
1100
,
0110
0000
1001
0000
0110
1001
0000
0000
,
1000
0001
1000
0001
1000
0001
1000
0001
0100
0010
0100
0010
1000
0100
0010
0001
,
0010
0000
0100
0000
1000
0000
0100
0000
0010
0000
0001
0000
1000
0000
0001
0000
1000
0000
0001
0000
1000
0100
0010
0001
1000
0100
0010
0001
1000
0100
0010
0001
,
1001
0100
0110
0000
1100
0010
0011
0000
,
1010
1000
0101
0000
0110
0001
1100
0000
,
0011
1000
0110
0000
1010
0100
0110
0000
,
0011
0010
1100
0000
0101
0001
0110
0000
,
1100
0001
0110
0000
0101
0010
1001
0000
,
1010
0100
0011
0000
1100
1000
0110
0000
,
0101
0010
1100
0010
0011
0100
1010
0100
,
0101
0001
1010
0001
0110
1000
1001
0010
,
1100
0100
0011
0100
1100
0010
0011
0100
,
0101
1000
1010
0100
1001
0001
1100
0010
,
0011
1000
0110
0100
1010
0001
0110
0010
,
1100
0010
0001
0010
1100
0010
0001
0010
1100
0010
0001
0010
1100
0010
0001
0010
,
1100
0000
0000
0000
,
1100
0010
0001
0010
0001
1000
0100
1000
0100
0010
0100
0010
0100
0010
0001
0010
,
0001
1000
0100
0010
0001
0010
0100
1000
0100
0010
0100
0001
0010
0100
1000
0010
,
0100
0001
0010
0100
1000
0001
1000
0010
0100
0001
1000
0010
0100
0001
1000
0100
,
0010
0001
1000
0010
0100
1000
0100
1000
0100
0010
0001
0010
0001
0010
0100
0010
,
0001
1000
0100
0010
0100
1000
0010
0100
0010
1000
0001
0010
0001
0010
0100
1000
,
0100
1000
0100
0010
0100
0010
0001
0010
0100
1000
0100
0010
0001
1000
0100
0010
,
0001
1000
0010
1000
0010
0100
0001
0100
0001
0010
0100
0010
1000
0100
1000
0001
,
0010
0001
1000
0100
0010
0001
1000
0100
0010
0001
1000
0001
0100
0010
1000
0001
,
1001
0100
0010
0001
1100
0000
0000
0000
1001
0010
0100
0001
1010
0000
0001
0000
,
1100
0010
0001
0010
1100
0000
0100
0000
1001
0010
0100
0010
1001
0000
0100
0000
,
1010
0100
0001
0100
1010
0000
0001
0000
0101
1000
0010
1000
0101
0000
0010
0000
,
1001
0100
0010
0100
1001
0000
0100
0000
0110
0001
1000
0001
0110
0000
1000
0000
,
1100
0001
0010
0100
1010
0000
0100
0000
1010
0100
0001
0010
1100
0000
0010
0000
,
1010
0001
0100
0010
1001
0000
0010
0000
1001
0100
0010
0001
1010
0000
0010
0000
,
1001
0100
0010
0001
1100
0000
0010
0000
1100
0001
0010
0100
1001
0000
0010
0000
,
1001
0000
0100
0000
0010
0000
0100
0000
1001
0000
0000
0000
0100
0000
0000
0000
1001
0000
0010
0000
0100
0000
0010
0000
1001
0000
0000
0000
0010
0000
1000
0100
,
0010
0001
1000
0000
0100
0000
0010
0000
1001
0000
0000
0000
0100
0000
0000
0000
1001
0000
0010
0000
0100
0000
0001
0000
1100
0000
0000
0000
0100
0000
0001
0010
,
0100
1000
0010
0000
0001
0000
0100
0000
1010
0000
0000
0000
0001
0000
0000
0000
1100
0000
0001
0000
0100
0000
0010
0000
1001
0000
0000
0000
0100
0000
0000
0000
,
1001
0010
0001
0100
1010
0000
0010
0000
1100
0010
0100
0001
1010
0000
0001
0000
,
1001
0000
0010
0000
0001
0000
0100
0000
1010
0000
0000
0000
0100
0000
0000
0000
1010
0000
0100
0000
0001
0000
0010
0000
1100
0000
0000
0000
0010
0000
1000
0100
,
1000
0100
0001
0000
0100
0000
0010
0000
1001
0000
0000
0000
0010
0000
0000
0000
0110
0000
1000
0000
0010
0000
0001
0000
1010
0000
0000
0000
0001
0000
0010
0100
,
0010
0100
1000
0000
0001
0000
0100
0000
1010
0000
0000
0000
0001
0000
0000
0000
1010
0000
0001
0000
0100
0000
0010
0000
1001
0000
0000
0000
0010
0000
0000
0000
,
1100
0001
0010
0001
1100
0000
0100
0000
1001
0100
0010
0100
1001
0000
0010
0000
,
1001
0100
0010
0001
1010
0000
0001
0000
1010
0001
1000
0010
1100
0000
0010
0000
,
1000
0100
1000
0100
0000
0000
0010
0000
0010
0001
0010
0001
0000
0000
0100
0000
,
1000
0100
0010
0001
0000
0000
0100
0000
0001
0010
0100
1000
0000
0000
0100
0000
,
1000
0001
0100
0010
0000
0000
0100
0000
0001
1000
0010
0100
0000
0000
0010
0000
,
0001
0010
0100
0010
0000
0000
0001
0000
1000
0100
0010
0100
0000
0000
1010
0000
,
1100
0000
0010
0000
0001
0000
0010
0000
0000
0000
0000
0000
0100
0000
0000
0000
0010
0000
0100
0000
1000
0000
0001
0000
0000
0000
0000
0000
0001
0000
0000
1000
,
0010
1000
0000
0000
0001
0000
1010
0000
0000
0000
0000
0000
0110
0000
0000
0000
1000
0000
0011
0000
1000
0000
0010
0001
0000
0000
0000
0000
0110
0000
0000
0000
,
1010
0000
0100
0000
0001
0000
1010
0000
0000
0000
0000
0000
0110
0000
0000
0000
0100
0000
0011
0000
0001
0000
1000
0010
0000
0000
0000
0000
0110
0000
0000
0000
,
0100
0010
0001
0000
1000
0000
1010
0000
0000
0000
0000
0000
0011
0000
0000
0000
0010
0000
0101
0000
1000
0000
0100
0001
0000
0000
0000
0000
1001
0000
0000
0000
,
1010
0000
0100
0000
0001
0000
0110
0000
0000
0000
0000
0000
0110
0000
0000
0000
1000
0000
0101
0000
0010
0000
0100
1000
0000
0000
0000
0000
0110
0000
0000
0001
,
0010
0100
0000
0000
1000
0000
0101
0000
0000
0000
0000
0000
0101
0000
0000
0000
0001
0000
1010
0000
0001
0000
0100
0010
0000
0000
0000
0000
1010
0000
0000
0000
,
0110
0000
1000
0000
0001
0000
1010
0000
0000
0000
0000
0000
0110
0000
0000
0000
0001
0000
1010
0000
0100
0000
0010
0001
0000
0000
0000
0000
0110
0000
0000
0000
,
1000
0010
0001
0000
0100
0000
1010
0000
0000
0000
0000
0000
0101
0000
0000
0000
1000
0000
0011
0000
1000
0000
0100
0010
0000
0000
0000
0000
0110
0000
0000
0000
,
0101
0000
1000
0000
0010
0000
0101
0000
0000
0000
0000
0000
0011
0000
0000
0000
0100
0000
1001
0000
0100
0000
0010
0001
0000
0000
0000
0000
0011
0000
0000
0000
,
1000
0100
0001
0000
0010
0000
1001
0000
0000
0000
0000
0000
0110
0000
0000
0000
0001
0000
1010
0000
0001
0000
0010
0100
0000
0000
0000
0000
0110
0000
0000
0000
,
1010
0000
0100
0000
0001
0000
1010
0000
0000
0000
0000
0000
0110
0000
0000
0000
1001
0000
0110
0000
0001
0000
0100
1000
0000
0000
0000
0000
0110
0000
0000
0000
,
1001
0010
0100
0000
1000
0000
0110
0000
0001
0000
0000
0000
0110
0000
0000
0000
0101
0000
1010
0000
0100
0000
0010
0001
0000
0000
0000
0000
0110
0000
0000
0000
,
1010
0000
0100
0000
0001
0000
1010
0000
0001
0000
0000
0000
0110
0000
0000
0000
0101
0000
1010
0000
0100
0000
1000
0010
0001
0000
0000
0000
0110
0000
0000
0000
,
1001
0100
0010
0000
0001
0000
1010
0000
0001
0000
0000
0000
0110
0000
0000
0000
1001
0000
0101
0000
1000
0000
0100
0010
0001
0000
0000
0000
0110
0000
0000
0000
,
1001
0000
0000
0000
0001
0001
0001
0001
1000
1000
1000
0000
0001
0001
1000
0000
,
1010
0100
0001
0010
1000
0100
0001
0010
1000
0100
1000
0010
0001
0100
0010
0100
,
1000
0010
0100
0001
0100
0010
1000
0001
0100
0010
1000
0100
0001
0010
0100
0010
,
1001
0100
0000
0000
1010
0010
0000
0000
1000
0001
0000
0000
1100
0100
0000
0000
,
1010
0010
0000
0000
1100
0100
0000
0000
1010
0010
0000
0000
1001
0001
0000
0000
,
1001
0100
0010
0001
1100
0001
0010
0100
1001
0010
0001
0100
1010
0100
0001
0010
,
1100
0010
0001
0010
1100
0001
0010
0100
1001
0010
0100
0010
1001
0010
0100
0001
,
1010
0100
0001
0100
1010
0001
0100
0010
1001
0100
0010
0100
1001
0100
0010
0001
,
1100
0001
0010
0100
1001
0100
0010
0100
1001
0100
0010
0001
1100
0000
0110
0001
,
2100
0010
0001
0010
0001
0010
0100
0010
0100
0010
0001
0010
0100
0010
0001
3010
,
0102
1000
0100
0010
0100
0010
0100
1000
0100
0010
0100
1000
0010
0100
1000
0103
,
1020
0001
1000
0100
1000
0001
1000
0001
0100
0001
1000
0001
0100
1000
0100
0031
,
1200
0001
1000
0010
0001
1000
0010
1000
0001
0010
0001
1000
0001
0010
1000
0310
,
1002
0010
0100
0010
0100
1000
0010
0100
0010
1000
0100
0010
1000
0010
1000
0103
,
2010
0001
0100
0010
0100
0010
0001
0010
0100
0010
0100
0010
0001
0010
0100
3010
,
0102
1000
0010
1000
0010
0100
0010
0100
1000
0010
0100
0010
1000
0100
1000
0013
,
1000
0000
0000
0010
0000
0000
0000
0000
0100
0001
0000
0000
0000
0000
0000
0000
;
